Torrent’s details
Name

Descent - Dana Vespoli 3

Torrent
Info Hash bf65b02b76d5ed588c7c1b3c89f0473c6eebabe5
Share with friends
Share |
Image  Descent - Dana Vespoli 3
Screenshots
Embed code
embed code for Descent - Dana Vespoli 3
Description


18325_04_hd_no_smoking_to_pornolab.net.mp4
Format : MPEG-4
Format profile : Base Media / Version 2
Codec ID : mp42
File size : 516 MiB
Duration : 36mn 57s
Overall bit rate : 1 953 Kbps
Encoded date : UTC 2013-03-26 09:17:23
Tagged date : UTC 2013-03-26 10:05:26
Writing application : HandBrake 0.9.5 2011010300
Video #1
ID : 1
Format : AVC
Format/Info : Advanced Video Codec
Format profile : Main@L3.1
Format settings, CABAC : Yes
Format settings, ReFrames : 4 frames
Codec ID : avc1
Codec ID/Info : Advanced Video Coding
Duration : 36mn 57s
Bit rate mode : Variable
Bit rate : 1 784 Kbps
Nominal bit rate : 1 800 Kbps
Width : 960 pixels
Height : 544 pixels
Display aspect ratio : 16:9
Frame rate mode : Variable
Frame rate : 29.970 fps
Minimum frame rate : 29.960 fps
Maximum frame rate : 29.970 fps
Resolution : 24 bits
Colorimetry : 4:2:0
Scan type : Progressive
Bits/(Pixel*Frame) : 0.114
Stream size : 472 MiB (91%)
Writing library : x264 core 112
Encoding settings : cabac=1 / ref=2 / deblock=1:0:0 / analyse=0x1:0x111 / me=hex / subme=6 / psy=1 / psy_rd=1.00:0.00 / mixed_ref=0 / me_range=16 / chroma_me=1 / trellis=0 / 8x8dct=0 / cqm=0 / deadzone=21,11 / fast_pskip=1 / chroma_qp_offset=-2 / threads=6 / sliced_threads=0 / nr=0 / decimate=1 / interlaced=0 / constrained_intra=0 / bframes=2 / b_pyramid=2 / b_adapt=1 / b_bias=0 / direct=1 / weightb=0 / open_gop=0 / weightp=2 / keyint=300 / keyint_min=29 / scenecut=40 / intra_refresh=0 / rc_lookahead=40 / rc=abr / mbtree=1 / bitrate=1800 / ratetol=1.0 / qcomp=0.60 / qpmin=3 / qpmax=51 / qpstep=4 / ip_ratio=1.40 / aq=1:1.00
Encoded date : UTC 2013-03-26 09:17:23
Tagged date : UTC 2013-03-26 10:05:26
colour_primaries : BT.709-5, BT.1361, IEC 61966-2-4, SMPTE RP177
transfer_characteristics : BT.709-5, BT.1361
matrix_coefficients : BT.709-5, BT.1361, IEC 61966-2-4 709, SMPTE RP177
Audio #2
ID : 2
Format : AAC
Format/Info : Advanced Audio Codec
Format version : Version 4
Format profile : LC
Format settings, SBR : No
Codec ID : 40
Duration : 36mn 57s
Bit rate mode : Variable
Bit rate : 165 Kbps
Maximum bit rate : 212 Kbps
Channel(s) : 2 channels
Channel positions : L R
Sampling rate : 44.1 KHz
Resolution : 16 bits
Stream size : 43.5 MiB (8%)
Encoded date : UTC 2013-03-26 09:17:23
Tagged date : UTC 2013-03-26 10:05:26





Desciption of Descent - Dana Vespoli 3
Category XXX clips
Genre       Anal       Hardcore      
Rating N/A
Size 516.35 MB
Show/Hide Files
1 file
AddDate 11/04/2013
Uploader xjock4ever23
Speed 0 KB/sec
Down 1 times
peers seeds: 7, leechers: 2 = 9 peers
Who thanks


No comments...