Torrent’s details
Name

Nuru Massage - Charmane Star - Cum Again

Torrent
Info Hash bf7c51fe7d25bac9f9f048c4a4226aaf3772b3b4
Share with friends
Share |
Image  Nuru Massage - Charmane Star - Cum Again
Screenshots
Embed code
embed code for Nuru Massage - Charmane Star - Cum Again
Description

General
Complete name : D:TorrentP.HD_Staci_Silverstone_fullhd.wmv
Format : Windows Media
File size : 1.66 GiB
Duration : 26mn 2s
Overall bit rate mode : Constant
Overall bit rate : 9 113 Kbps
Maximum Overall bit rate : 9 199 Kbps
Encoded date : UTC 2013-04-29 22:19:22.201

Video
ID : 2
Format : VC-1
Format profile : MP@HL
Codec ID : WMV3
Codec ID/Info : Windows Media Video 9
Codec ID/Hint : WMV3
Description of the codec : Windows Media Video 9 - Professional
Duration : 26mn 2s
Bit rate mode : Constant
Bit rate : 9 000 Kbps
Width : 1 920 pixels
Height : 1 080 pixels
Display aspect ratio : 16:9
Frame rate : 23.976 fps
Nominal frame rate : 29.970 fps
Bit depth : 8 bits
Scan type : Progressive
Compression mode : Lossy
Bits/(Pixel*Frame) : 0.181
Stream size : 1.64 GiB (99%)

Audio
ID : 1
Format : WMA
Format version : Version 2
Codec ID : 161
Codec ID/Info : Windows Media Audio
Description of the codec : Windows Media Audio 9.2 - 128 kbps, 44 kHz, stereo 2-pass CBR
Duration : 26mn 2s
Bit rate mode : Constant
Bit rate : 128 Kbps
Channel(s) : 2 channels
Sampling rate : 44.1 KHz
Bit depth : 16 bits
Stream size : 23.8 MiB (1%)

Desciption of Nuru Massage - Charmane Star - Cum Again
Category XXX clips
Genre       Hardcore       Teen      
Rating N/A
Size 216.48 MB
Show/Hide Files
1 file
AddDate 12/05/2013
Uploader xjock4ever23
Speed 0 KB/sec
Down 1 times
peers seeds: 9, leechers: 4 = 13 peers
Who thanks


No comments...