Torrent’s details
Name

Jules Jordan - Mischa Brooks - Glamorous Ass To Mouth Facial

Torrent
Info Hash c3bddd5d26312726018a494d6802613e301383f9
Share with friends
Share |
Image Jules Jordan - Mischa Brooks - Glamorous Ass To Mouth Facial
Screenshots
Embed code
embed code for Jules Jordan - Mischa Brooks - Glamorous Ass To Mouth Facial
Description


General
Complete name : D:Torrentglamorous_ass_to_mouth_facial_sd.mp4
Format : MPEG-4
Format profile : Base Media
Codec ID : isom
File size : 249 MiB
Duration : 32mn 24s
Overall bit rate : 1 074 Kbps
Encoded date : UTC 2013-01-25 22:37:24
Tagged date : UTC 2013-01-25 22:37:24
Writing application : Lavf53.29.100

Video
ID : 1
Format : AVC
Format/Info : Advanced Video Codec
Format profile : Main@L3.0
Format settings, CABAC : Yes
Format settings, ReFrames : 3 frames
Codec ID : avc1
Codec ID/Info : Advanced Video Coding
Duration : 32mn 24s
Bit rate : 1 000 Kbps
Width : 640 pixels
Height : 360 pixels
Display aspect ratio : 16:9
Frame rate mode : Constant
Frame rate : 29.970 fps
Color space : YUV
Chroma subsampling : 4:2:0
Bit depth : 8 bits
Scan type : Progressive
Bits/(Pixel*Frame) : 0.145
Stream size : 232 MiB (93%)
Encoded date : UTC 2013-01-25 22:37:24
Tagged date : UTC 2013-01-25 22:37:24

Audio
ID : 2
Format : AAC
Format/Info : Advanced Audio Codec
Format profile : LC
Codec ID : 40
Duration : 32mn 24s
Bit rate mode : Constant
Bit rate : 64.1 Kbps
Channel(s) : 2 channels
Channel positions : Front: L R
Sampling rate : 48.0 KHz
Compression mode : Lossy
Delay relative to video : 33ms
Stream size : 14.9 MiB (6%)
Language : English
Encoded date : UTC 2013-01-25 22:37:24
Tagged date : UTC 2013-01-25 22:37:24




Desciption of Jules Jordan - Mischa Brooks - Glamorous Ass To Mouth Facial
Category XXX clips
Genre       Anal       Hardcore      
Rating N/A
Size 248.97 MB
Show/Hide Files
1 file
AddDate 13/04/2013
Uploader xjock4ever23
Speed 0 KB/sec
Down 5 times
peers seeds: 8, leechers: 3 = 11 peers
Who thanks


No comments...