Torrent’s details
Name

Zooskool_The_Horse_Dirty_fuckin_sucking_Animal_Sex_XXX_Porn

Torrent
Info Hash c555d737b649a6b3d542d7379b5c06959cf50e96
Share with friends
Share |
Image Zooskool_The_Horse_Dirty_fuckin_sucking_Animal_Sex_XXX_Porn
Screenshots
Zooskool_The_Horse_Dirty_fuckin_sucking_Animal_Sex_XXX_Porn Image1 Zooskool_The_Horse_Dirty_fuckin_sucking_Animal_Sex_XXX_Porn Image2 Zooskool_The_Horse_Dirty_fuckin_sucking_Animal_Sex_XXX_Porn Image3 Zooskool_The_Horse_Dirty_fuckin_sucking_Animal_Sex_XXX_Porn Image4
Zooskool_The_Horse_Dirty_fuckin_sucking_Animal_Sex_XXX_Porn Image5 Zooskool_The_Horse_Dirty_fuckin_sucking_Animal_Sex_XXX_Porn Image6 Zooskool_The_Horse_Dirty_fuckin_sucking_Animal_Sex_XXX_Porn Image7 Zooskool_The_Horse_Dirty_fuckin_sucking_Animal_Sex_XXX_Porn Image8
Embed code
embed code for Zooskool_The_Horse_Dirty_fuckin_sucking_Animal_Sex_XXX_Porn
Description Zooskool - The Horse - Dirty fuckin sucking Animal Sex


Format                           : AVI
Format/Info                      : Audio Video Interleave
File size                        : 57.3 MiB
Duration                         : 8mn 4s
Overall bit rate                 : 993 Kbps
Writing library                  : VirtualDub Build 18160/Release

Video
ID                               : 0
Format                           : MPEG-4 Visual
Codec ID                         : DIV3
Codec ID/Hint                    : DivX 3 Low
Duration                         : 8mn 4s
Bit rate                         : 927 Kbps
Width                            : 352 pixels
Height                           : 288 pixels
Display aspect ratio             : 1.222
Frame rate                       : 25.000 fps
Standard                         : PAL
Color space                      : YUV
Chroma subsampling               : 4:2:0
Bit depth                        : 8 bits
Bits/(Pixel*Frame)               : 0.366
Stream size                      : 53.5 MiB (93%)

Audio
ID                               : 1
Format                           : MPEG Audio
Format version                   : Version 2
Format profile                   : Layer 3
Mode                             : Joint stereo
Mode extension                   : Intensity Stereo + MS Stereo
Codec ID                         : 55
Codec ID/Hint                    : MP3
Duration                         : 8mn 4s
Bit rate mode                    : Constant
Bit rate                         : 56.0 Kbps
Channel(s)                       : 2 channels
Sampling rate                    : 22.05 KHz
Stream size                      : 3.22 MiB (6%)
Alignment                        : Split accross interleaves
Interleave, duration             : 40 ms (1.00 video frame)
Interleave, preload duration     : 502 ms


ENDJOY )))

Desciption of Zooskool_The_Horse_Dirty_fuckin_sucking_Animal_Sex_XXX_Porn
Category XXX clips
Genre       Zoo (animal)       Horse      
Rating
Size 57.40 MB
Show/Hide Files
9 files
AddDate 11/10/2010
Uploader ROROS
Speed 0 KB/sec
Down 388 times
peers seeds: 0, leechers: 1 = 1 peers
Who thanks


kuriakos 02/06/2013 17.00.10
thank you