Torrent’s details
Name

Ass Party 2 DiSC1 XXX DVDRip x264-Jiggly

Torrent
Info Hash ca17b13cea11a60fc5953fda9a11cecd825e928e
Share with friends
Share |
Image Ass Party 2 DiSC1 XXX DVDRip x264-Jiggly
Screenshots
Embed code
embed code for Ass Party 2 DiSC1 XXX DVDRip x264-Jiggly
Description General
Complete name                            : Dgrin.gifocuments and Settingsxjock4everMy DocumentsPORNBAYAss.Party.2.DiSC1.XXX.DVDRip.x264-Jigglyjiggly-asspart2d1-x264.mp4
Format                                   : MPEG-4
Format profile                           : Base Media
Codec ID                                 : isom
File size                                : 1.41 GiB
Duration                                 : 2h 33mn
Overall bit rate mode                    : Variable
Overall bit rate                         : 1 315 Kbps
Encoded date                             : UTC 2012-11-17 02:04:20
Tagged date                              : UTC 2012-11-17 02:04:20

Video
ID                                       : 1
Format                                   : AVC
Format/Info                              : Advanced Video Codec
Format profile                           : High@L3.1
Format settings, CABAC                   : Yes
Format settings, ReFrames                : 5 frames
Codec ID                                 : avc1
Codec ID/Info                            : Advanced Video Coding
Duration                                 : 2h 33mn
Bit rate                                 : 1 214 Kbps
Maximum bit rate                         : 3 792 Kbps
Width                                    : 720 pixels
Height                                   : 400 pixels
Display aspect ratio                     : 16:9
Frame rate mode                          : Constant
Frame rate                               : 29.970 fps
Color space                              : YUV
Chroma subsampling                       : 4:2:0
Bit depth                                : 8 bits
Scan type                                : Progressive
Bits/(Pixel*Frame)                       : 0.141
Stream size                              : 1.30 GiB (92%)

Encoded date                             : UTC 2012-11-17 00:04:34
Tagged date                              : UTC 2012-11-17 02:04:50

Audio
ID                                       : 2
Format                                   : AAC
Format/Info                              : Advanced Audio Codec
Format profile                           : LC
Codec ID                                 : 40
Duration                                 : 2h 33mn
Bit rate mode                            : Variable
Bit rate                                 : 96.0 Kbps
Maximum bit rate                         : 109 Kbps
Channel(s)                               : 2 channels
Channel positions                        : Front: L R
Sampling rate                            : 48.0 KHz
Compression mode                         : Lossy
Delay relative to video                  : 67ms
Stream size                              : 105 MiB (7%)
Language                                 : English
Encoded date                             : UTC 2012-11-17 02:04:47
Tagged date                              : UTC 2012-11-17 02:04:50


Desciption of Ass Party 2 DiSC1 XXX DVDRip x264-Jiggly
Category XXX movies
Genre       Hardcore      
Rating N/A
Size 1.41 GB
Show/Hide Files
1 file
AddDate 17/11/2012
Uploader xjock4ever23
Speed 0 KB/sec
Down 8 times
peers seeds: 8, leechers: 1 = 9 peers
Who thanks


No comments...