Torrent’s details
Name

Party Of Three - Angela Summers, Destiny Dixon, Jessica Rabbit - Sexy Lesbians In A Threesom

Torrent
Info Hash d2251a0a48fd096985287fadac7285bddee7b3d3
Share with friends
Share |
Image Party Of Three - Angela Summers, Destiny Dixon, Jessica Rabbit - Sexy Lesbians In A Threesom
Screenshots
Embed code
embed code for Party Of Three - Angela Summers, Destiny Dixon, Jessica Rabbit - Sexy Lesbians In A Threesom
Description

General
Complete name : D:Torrentls11548_1500.mp4
Format : MPEG-4
Format profile : Base Media
Codec ID : isom
File size : 418 MiB
Duration : 37mn 17s
Overall bit rate mode : Variable
Overall bit rate : 1 566 Kbps
Encoded date : UTC 2013-03-29 21:39:24
Tagged date : UTC 2013-03-29 21:39:24
Writing application : Lavf53.32.100

Video
ID : 1
Format : AVC
Format/Info : Advanced Video Codec
Format profile : Main@L3.1
Format settings, CABAC : Yes
Format settings, ReFrames : 6 frames
Codec ID : avc1
Codec ID/Info : Advanced Video Coding
Duration : 37mn 17s
Bit rate : 1 500 Kbps
Width : 852 pixels
Height : 480 pixels
Display aspect ratio : 16:9
Original display aspect ratio : 16:9
Frame rate mode : Constant
Frame rate : 29.970 fps
Color space : YUV
Chroma subsampling : 4:2:0
Bit depth : 8 bits
Scan type : Progressive
Bits/(Pixel*Frame) : 0.122
Stream size : 396 MiB (95%)
Writing library : x264 core 124 r2019+178 69a0443
Language : English
Encoded date : UTC 2013-03-29 21:39:24
Tagged date : UTC 2013-03-29 21:39:24

Audio
ID : 2
Format : AAC
Format/Info : Advanced Audio Codec
Format profile : LC
Codec ID : 40
Duration : 37mn 17s
Bit rate mode : Variable
Bit rate : 72.0 Kbps
Maximum bit rate : 96.0 Kbps
Channel(s) : 2 channels
Channel positions : Front: L R
Sampling rate : 44.1 KHz
Compression mode : Lossy
Delay relative to video : 67ms
Stream size : 19.1 MiB (5%)
Language : English
Encoded date : UTC 2013-03-29 21:39:24
Tagged date : UTC 2013-03-29 21:39:24





Desciption of Party Of Three - Angela Summers, Destiny Dixon, Jessica Rabbit - Sexy Lesbians In A Threesom
Category XXX clips
Genre       Anal       Gonzo       Hardcore      
Rating
Size 417.81 MB
Show/Hide Files
1 file
AddDate 04/04/2013
Uploader xjock4ever23
Speed 0 KB/sec
Down 6 times
peers seeds: 2, leechers: 2 = 4 peers
Who thanks


No comments...