Torrent’s details
Name

Tits To Die For

Torrent
Info Hash d8f8c2f06cc2184f2cb9a211e191abc8c811b632
Share with friends
Share |
Image Tits To Die For
Screenshots
Embed code
embed code for Tits To Die For
Description


general
Complete name: C:  Users  Pista  Downloads  nympho-ttdf.cd1.avi
Format: AVI
Format / Info: Audio Video Interleave
File Size: 699 MiB
Duration: 1 hour
Overall bit rate mode: Variable
Overall bit rate: 1 535 Kbps
Writing application: VirtualDubMod 1.5.4.1 (build 2178/release)
Writing library: VirtualDubMod build 2178/release

picture
ID: 0
Format: MPEG-4 Visual
Format profile: Advanced Simple @ L5
Format settings, BVOP: 1
Format settings, QPel: No
Format settings, GMC: No warppoints 0
Format settings, Matrix: Default (H.263)
Muxing mode: Packed
Codec ID: XVID
Codec ID / Hint: XviD
Duration: 1 hour
Bit rate: 1 418 Kbps
Width: 624 pixels
Height: 352 pixels
Aspect Ratio: 16:9
Frame rate: 23.976 fps
Color space: YUV
Chroma: 4:2:0
Resolution / String: 8 bits
Scan type: Progressive
Bits / (Pixel * Frame): 0.269
Stream size: 646 MiB (92%)
Writing library: XviD 1.2.0.dev47 (UTC 2006-11-01)

sound
ID: 1
Format: MPEG Audio
Format version: Version 1
Format profile: Layer 3
Format_Settings_ModeExtension: Joint stereo
Format_Settings_ModeExtension: MS Stereo
Codec ID: 55
Codec ID / Hint: MP3
Duration: 1 hour
Bit rate mode: Variable
Bit rate: 104 Kbps
Nominal bit rate: 128 Kbps
Number of channels: 2 channels
Sampling rate: 48.0 KHz
Stream size: 47.4 MiB (7%)
Alignment:
Interleave, duration: 24 ms (0.58 video frame)
Interleave, preload duration: 506 ms
Writing library: LAME3.97
Encoding settings:-mj-V 4-q 2-lowpass 17 - abr 128
 








 





Desciption of Tits To Die For
Category XXX movies
Genre       Anal       Gonzo       Hardcore      
Rating
Size 1.37 GB
Show/Hide Files
2 files
AddDate 06/04/2013
Uploader xjock4ever23
Speed 0 KB/sec
Down 11 times
peers seeds: 6, leechers: 3 = 9 peers
Who thanks


No comments...