Torrent’s details
Name

Ass Party 2 DiSC2 XXX DVDRip x264-Jiggly

Torrent
Info Hash d9847bdc338a721e1a40280575d7134b18b976f8
Share with friends
Share |
Image Ass Party 2 DiSC2 XXX DVDRip x264-Jiggly
Screenshots
Embed code
embed code for Ass Party 2 DiSC2 XXX DVDRip x264-Jiggly
Description General
Complete name                            : Dgrin.gifocuments and Settingsxjock4everMy DocumentsPORNBAYAss.Party.2.DiSC2.XXX.DVDRip.x264-Jigglyjiggly-asspart2d2-x264.mp4
Format                                   : MPEG-4
Format profile                           : Base Media
Codec ID                                 : isom
File size                                : 1.19 GiB
Duration                                 : 1h 50mn
Overall bit rate mode                    : Variable
Overall bit rate                         : 1 546 Kbps
Encoded date                             : UTC 2012-11-16 04:18:42
Tagged date                              : UTC 2012-11-16 04:18:42
Writing application                      : My MP4Box GUI 0.5.6.0 <http://my-mp4box-gui.zymichost.com>

Video
ID                                       : 1
Format                                   : AVC
Format/Info                              : Advanced Video Codec
Format profile                           : High@L3.1
Format settings, CABAC                   : Yes
Format settings, ReFrames                : 5 frames
Codec ID                                 : avc1
Codec ID/Info                            : Advanced Video Coding
Duration                                 : 1h 50mn
Bit rate                                 : 1 446 Kbps
Maximum bit rate                         : 5 256 Kbps
Width                                    : 720 pixels
Height                                   : 400 pixels
Display aspect ratio                     : 16:9
Frame rate mode                          : Constant
Frame rate                               : 29.970 fps
Color space                              : YUV
Chroma subsampling                       : 4:2:0
Bit depth                                : 8 bits
Scan type                                : Progressive
Bits/(Pixel*Frame)                       : 0.167
Stream size                              : 1.11 GiB (94%)
Writing library                          : x264 core 129 r2230 1cffe9f
Encoding settings                        : cabac=1 / ref=5 / deblock=1:0:0 / analyse=0x3:0x133 / me=umh / subme=8 / psy=1 / psy_rd=1.00:0.00 / mixed_ref=1 / me_range=16 / chroma_me=1 / trellis=1 / 8x8dct=1 / cqm=0 / deadzone=21,11 / fast_pskip=0 / chroma_qp_offset=-2 / threads=12 / lookahead_threads=2 / sliced_threads=0 / nr=0 / decimate=1 / interlaced=0 / bluray_compat=0 / constrained_intra=0 / bframes=3 / b_pyramid=2 / b_adapt=2 / b_bias=0 / direct=3 / weightb=1 / open_gop=0 / weightp=2 / keyint=300 / keyint_min=29 / scenecut=40 / intra_refresh=0 / rc_lookahead=50 / rc=crf / mbtree=1 / crf=20.0 / qcomp=0.60 / qpmin=0 / qpmax=69 / qpstep=4 / ip_ratio=1.40 / aq=1:1.00
Encoded date                             : UTC 2012-11-17 01:12:42
Tagged date                              : UTC 2012-11-16 04:19:17

Audio
ID                                       : 2
Format                                   : AAC
Format/Info                              : Advanced Audio Codec
Format profile                           : LC
Codec ID                                 : 40
Duration                                 : 1h 50mn
Bit rate mode                            : Variable
Bit rate                                 : 96.0 Kbps
Maximum bit rate                         : 111 Kbps
Channel(s)                               : 2 channels
Channel positions                        : Front: L R
Sampling rate                            : 48.0 KHz
Compression mode                         : Lossy
Delay relative to video                  : 67ms
Stream size                              : 75.7 MiB (6%)
Encoded date                             : UTC 2012-11-16 04:19:15
Tagged date                              : UTC 2012-11-16 04:19:17


Desciption of Ass Party 2 DiSC2 XXX DVDRip x264-Jiggly
Category XXX movies
Genre       Hardcore      
Rating N/A
Size 1.19 GB
Show/Hide Files
1 file
AddDate 17/11/2012
Uploader xjock4ever23
Speed 0 KB/sec
Down 9 times
peers seeds: 1, leechers: 2 = 3 peers
Who thanks


No comments...