Torrent’s details
Name

Exxxtreme DreamGirls 3 XXX DVDRip x264-Pr0nStarS

Torrent
Info Hash ebc59bd105e4889a120c8ccff5e0c51ee23571e1
Share with friends
Share |
Image Exxxtreme DreamGirls 3 XXX DVDRip x264-Pr0nStarS
Screenshots
Embed code
embed code for Exxxtreme DreamGirls 3 XXX DVDRip x264-Pr0nStarS
Description General
Complete name                            : Dgrin.gifocuments and Settingsxjock4everMy DocumentsFETISHExxxtreme.DreamGirls.3.XXX.DVDRip.x264-Pr0nStarSps-ed3.mp4
Format                                   : MPEG-4
Format profile                           : Base Media
Codec ID                                 : isom
File size                                : 1.13 GiB
Duration                                 : 2h 0mn
Overall bit rate mode                    : Variable
Overall bit rate                         : 1 345 Kbps
Encoded date                             : UTC 2012-11-19 04:34:12
Tagged date                              : UTC 2012-11-19 04:34:12

Video
ID                                       : 1
Format                                   : AVC
Format/Info                              : Advanced Video Codec
Format profile                           : High@L3.1
Format settings, CABAC                   : Yes
Format settings, ReFrames                : 5 frames
Codec ID                                 : avc1
Codec ID/Info                            : Advanced Video Coding
Duration                                 : 2h 0mn
Bit rate                                 : 1 167 Kbps
Maximum bit rate                         : 4 522 Kbps
Width                                    : 640 pixels
Height                                   : 480 pixels
Display aspect ratio                     : 4:3
Frame rate mode                          : Constant
Frame rate                               : 29.970 fps
Color space                              : YUV
Chroma subsampling                       : 4:2:0
Bit depth                                : 8 bits
Scan type                                : Progressive
Bits/(Pixel*Frame)                       : 0.127
Stream size                              : 1 002 MiB (87%)
Writing library                          : x264 core 129 r2230 1cffe9f
Encoding settings                        : cabac=1 / ref=5 / deblock=1:0:0 / analyse=0x3:0x113 / me=umh / subme=8 / psy=1 / psy_rd=1.00:0.00 / mixed_ref=1 / me_range=16 / chroma_me=1 / trellis=1 / 8x8dct=1 / cqm=0 / deadzone=21,11 / fast_pskip=0 / chroma_qp_offset=-2 / threads=12 / lookahead_threads=2 / sliced_threads=0 / nr=0 / decimate=1 / interlaced=0 / bluray_compat=0 / constrained_intra=0 / bframes=3 / b_pyramid=2 / b_adapt=2 / b_bias=0 / direct=3 / weightb=1 / open_gop=0 / weightp=2 / keyint=300 / keyint_min=29 / scenecut=40 / intra_refresh=0 / rc_lookahead=50 / rc=crf / mbtree=1 / crf=20.0 / qcomp=0.60 / qpmin=0 / qpmax=69 / qpstep=4 / ip_ratio=1.40 / aq=1:1.00
Encoded date                             : UTC 2012-11-19 04:34:12
Tagged date                              : UTC 2012-11-19 04:34:55

Audio
ID                                       : 2
Format                                   : AAC
Format/Info                              : Advanced Audio Codec
Format profile                           : LC
Codec ID                                 : 40
Duration                                 : 2h 0mn
Bit rate mode                            : Variable
Bit rate                                 : 173 Kbps
Maximum bit rate                         : 198 Kbps
Channel(s)                               : 2 channels
Channel positions                        : Front: L R
Sampling rate                            : 48.0 KHz
Compression mode                         : Lossy
Stream size                              : 148 MiB (13%)
Encoded date                             : UTC 2012-11-19 04:34:39
Tagged date                              : UTC 2012-11-19 04:34:55


Desciption of Exxxtreme DreamGirls 3 XXX DVDRip x264-Pr0nStarS
Category XXX movies
Genre       Amateur      
Rating N/A
Size 1.13 GB
Show/Hide Files
1 file
AddDate 19/11/2012
Uploader xjock4ever23
Speed 0 KB/sec
Down 6 times
peers seeds: 3, leechers: 3 = 6 peers
Who thanks


No comments...