Torrent’s details
Name

Signore Insaziabili

Torrent
Info Hash ec0011bcd07ddfe1af2812ce4929665405caa427
Share with friends
Share |
Image Signore Insaziabili
Screenshots
Signore Insaziabili Image1
Embed code
embed code for Signore Insaziabili
Description Год производства: 2012 г.
Жанр: anal,oral,DP
Продолжительность: 1h 56mn
Режиссер: J.F. Romagnoli
Студия: ATV Entertainment

В ролях: Cast Maschile:

Antonio Ross , Chocky Ice , David Perry , Max Payne , Thomas Stone

Cast Femminile:

Geena Gain , Tiffany Russo , Valentina Valente , Vittoria Risi , Winnie

Доп. информация: http://www.atvhomevideo.it/catalog/j/ARTICLE/da855/...insaziabili.html

ormat : AVI
Format/Info : Audio Video Interleave
File size : 1.85 GiB
Duration : 1h 56mn
Overall bit rate : 2 266 Kbps
Writing application : Lavf51.12.1
Writing library : VirtualDub build 32842/release

Video
ID : 0
Format : MPEG-4 Visual
Format profile : Advanced Simple@L5
Format settings, BVOP : 2
Format settings, QPel : No
Format settings, GMC : No warppoints
Format settings, Matrix : Default (H.263)
Codec ID : XVID
Codec ID/Hint : XviD
Duration : 1h 56mn
Bit rate : 2 128 Kbps
Width : 720 pixels
Height : 576 pixels
Display aspect ratio : 5:4
Frame rate : 25.000 fps
Standard : PAL
Color space : YUV
Chroma subsampling : 4:2:0
Bit depth : 8 bits
Scan type : Progressive
Compression mode : Lossy
Bits/(Pixel*Frame) : 0.205
Stream size : 1.74 GiB (94%)
Writing library : XviD 1.2.1 (UTC 2008-12-04)

Audio
ID : 1
Format : MPEG Audio
Format version : Version 1
Format profile : Layer 3
Mode : Joint stereo
Mode extension : MS Stereo
Codec ID : 55
Codec ID/Hint : MP3
Duration : 1h 56mn
Bit rate mode : Constant
Bit rate : 128 Kbps
Channel(s) : 2 channels
Sampling rate : 44.1 KHz
Compression mode : Lossy
Stream size : 107 MiB (6%)
Alignment : Split accross interleaves
Interleave, duration : 40 ms (1.00 video frame)
Interleave, preload duration : 500 ms
Writing library : LAME3.98.4)
Desciption of Signore Insaziabili
Category XXX movies
Genre       Anal       DP       Gonzo      
Rating
Size 1.85 GB
Show/Hide Files
2 files
AddDate 30/12/2012
Uploader armagedon
Speed 0 KB/sec
Down 12 times
peers seeds: 6, leechers: 2 = 8 peers
Who thanks


No comments...