Torrent’s details
Name

Pure 18 - Nikita Bellucc - Naughty Nikita

Torrent
Info Hash ecef6ac3639e6c48e5159a220b65365c4487ff52
Share with friends
Share |
Image  Pure 18 - Nikita Bellucc - Naughty Nikita
Screenshots
Embed code
embed code for Pure 18 - Nikita Bellucc - Naughty Nikita
Description

Complete name : naughty_nikita_big.wmv
Format : Windows Media
File size : 421 MiB
Duration : 36mn 58s
Overall bit rate : 1 590 Kbps
Maximum Overall bit rate : 1 570 Kbps
Encoded date : UTC 2013-04-04 14:54:03.000

Video
ID : 1
Format : VC-1
Format profile : MP
Codec ID : WMV3
Codec ID/Info : Windows Media Video 9
Codec ID/Hint : WMV3
Description of the codec : Windows Media Video 9 - 2-pass VBR
Duration : 36mn 58s
Bit rate : 1 500 Kbps
Width : 768 pixels
Height : 432 pixels
Display aspect ratio : 16:9
Frame rate : 29.970 fps
Bit depth : 8 bits
Scan type : Progressive
Compression mode : Lossy
Bits/(Pixel*Frame) : 0.151
Stream size : 397 MiB (94%)

Audio
ID : 2
Format : WMA
Format version : Version 2
Codec ID : 161
Codec ID/Info : Windows Media Audio
Description of the codec : Windows Media Audio 9 - 48 kbps, 44 kHz, mono CBR
Duration : 36mn 58s
Bit rate : 48.0 Kbps
Channel(s) : 1 channel
Sampling rate : 44.1 KHz
Bit depth : 16 bits
Stream size : 12.7 MiB (3%)




Desciption of Pure 18 - Nikita Bellucc - Naughty Nikita
Category XXX clips
Genre       Amateur       Anal       Teen      
Rating
Size 420.62 MB
Show/Hide Files
1 file
AddDate 06/04/2013
Uploader xjock4ever23
Speed 0 KB/sec
Down 8 times
peers seeds: 3, leechers: 2 = 5 peers
Who thanks


No comments...