Torrent’s details
Name

Massage Girls 18 - Melissa

Torrent
Info Hash efac3cae8dabf3c99f0671e9eede8ca86fbd5aca
Share with friends
Share |
Image Massage Girls 18 - Melissa
Screenshots
Embed code
embed code for Massage Girls 18 - Melissa
Description

general
Full name: H:  1  melissa2mg.mp4
Format: MPEG-4
Format profile: Base Media / Version 2
Codec ID: MP42
File Size: 474 MiB
Duration: 25 minutes
Overall bit rate: 2 602 Kbps
Encoded date: UTC 2013-02-07 08:15:20
Marking date: UTC 2013-02-07 08:15:20

image
Track number: 2
Format: AVC
Format / Info: Advanced Video Codec
Format profile: Main@L3.1
Format settings, CABAC: Yes
Format settings, ReFrames: 5 frames
Format_Settings_GOP M = 3, N = 24
Codec ID: avc1
Codec ID / Info: Advanced Video Coding
Duration: 25 minutes
Bit rate mode: Variable
Bit rate: 2 469 Kbps
Width: 1000 pixels
Height: 564 pixels
Aspect Ratio: 16:9
Frame rate mode: Variable
Frame rate: 29.970 fps
Standard: NTSC
Color space: YUV
Chroma: 4:2:0
Bit depth / String: 8 bits
Scan type: Progressive
Bits / (Pixel * Frame): 0.146
Stream size: 450 MiB (95%)
Language: English
Encoded date: UTC 2013-02-07 08:15:20
Marking date: UTC 2013-02-07 08:15:20

sound
Number band: 1
Format: AAC
Format / Info: Advanced Audio Codec
Format profile: LC
Codec ID: 40
Duration: 25 minutes
Bit rate mode: Variable
Bit rate: 128 Kbps
Number of Channels: 2 Channels
Channel positions: Front: L R
Sampling rate: 44.1 KHz
Stream size: 23.3 MiB (5%)
Language: English
Encoded date: UTC 2013-02-07 08:15:20
Marking date: UTC 2013-02-07 08:15:20








Desciption of Massage Girls 18 - Melissa
Category XXX clips
Genre       Hardcore      
Rating
Size 473.92 MB
Show/Hide Files
1 file
AddDate 07/04/2013
Uploader xjock4ever23
Speed 0 KB/sec
Down 6 times
peers seeds: 6, leechers: 2 = 8 peers
Who thanks


No comments...