Torrent’s details
Name

Big Tits Round Asses Layla Rose, Krista James - Two Sexy College Girls With Big Tits Play

Torrent
Info Hash f151823bfa4246303227b9e0b2c31653285957af
Share with friends
Share |
Image Big Tits Round Asses Layla Rose, Krista James - Two Sexy College Girls With Big Tits Play
Screenshots
Embed code
embed code for Big Tits Round Asses Layla Rose, Krista James - Two Sexy College Girls With Big Tits Play
Description

General
Complete name : D:Torrentbtra11352_1500.mp4
Format : MPEG-4
Format profile : Base Media
Codec ID : isom
File size : 433 MiB
Duration : 38mn 36s
Overall bit rate mode : Variable
Overall bit rate : 1 569 Kbps
Encoded date : UTC 2013-02-12 10:24:37
Tagged date : UTC 2013-02-12 10:24:37
Writing application : Lavf53.32.100

Video
ID : 1
Format : AVC
Format/Info : Advanced Video Codec
Format profile : Main@L3.1
Format settings, CABAC : Yes
Format settings, ReFrames : 6 frames
Codec ID : avc1
Codec ID/Info : Advanced Video Coding
Duration : 38mn 36s
Bit rate : 1 500 Kbps
Width : 852 pixels
Height : 480 pixels
Display aspect ratio : 16:9
Frame rate mode : Constant
Frame rate : 29.970 fps
Color space : YUV
Chroma subsampling : 4:2:0
Bit depth : 8 bits
Scan type : Progressive
Bits/(Pixel*Frame) : 0.122
Stream size : 411 MiB (95%)
Language : English
Encoded date : UTC 2013-02-12 10:24:37
Tagged date : UTC 2013-02-12 10:24:37

Audio
ID : 2
Format : AAC
Format/Info : Advanced Audio Codec
Format profile : LC
Codec ID : 40
Duration : 38mn 36s
Bit rate mode : Variable
Bit rate : 72.0 Kbps
Maximum bit rate : 96.0 Kbps
Channel(s) : 2 channels
Channel positions : Front: L R
Sampling rate : 44.1 KHz
Compression mode : Lossy
Delay relative to video : 67ms
Stream size : 19.6 MiB (5%)
Language : English
Encoded date : UTC 2013-02-12 10:24:37
Tagged date : UTC 2013-02-12 10:24:37







Desciption of Big Tits Round Asses Layla Rose, Krista James - Two Sexy College Girls With Big Tits Play
Category XXX clips
Genre       Lesbian      
Rating N/A
Size 433.27 MB
Show/Hide Files
1 file
AddDate 04/04/2013
Uploader xjock4ever23
Speed 0 KB/sec
Down 4 times
peers seeds: 3, leechers: 3 = 6 peers
Who thanks


No comments...