Torrent’s details
Name

Amuse Me Versaute Flittchen German XXX DVDRip XviD-CHiKANi

Torrent
Info Hash f5b19c12e90ce7655d20b600c4e7c322f6da2266
Share with friends
Share |
Image Amuse Me Versaute Flittchen German XXX DVDRip XviD-CHiKANi
Screenshots
Embed code
embed code for Amuse Me Versaute Flittchen German XXX DVDRip XviD-CHiKANi
Description General
Complete name                            : Dgrin.gifocuments and Settingsxjock4everMy Documentsdvd filmeAmuse.Me.Versaute.Flittchen.German.XXX.DVDRip.XviD-CHiKANichi-amvf.avi
Format                                   : AVI
Format/Info                              : Audio Video Interleave
File size                                : 698 MiB
Duration                                 : 1h 28mn
Overall bit rate mode                    : Variable
Overall bit rate                         : 1 100 Kbps

Video
ID                                       : 0
Format                                   : MPEG-4 Visual
Format profile                           : Advanced Simple@L5
Format settings, BVOP                    : 2
Format settings, QPel                    : No
Format settings, GMC                     : No warppoints
Format settings, Matrix                  : Default (H.263)
Codec ID                                 : XVID
Codec ID/Hint                            : XviD
Duration                                 : 1h 28mn
Bit rate                                 : 968 Kbps
Width                                    : 576 pixels
Height                                   : 432 pixels
Display aspect ratio                     : 4:3
Frame rate                               : 25.000 fps
Color space                              : YUV
Chroma subsampling                       : 4:2:0
Bit depth                                : 8 bits
Scan type                                : Progressive
Compression mode                         : Lossy
Bits/(Pixel*Frame)                       : 0.156
Stream size                              : 615 MiB (88%)
Writing library                          : XviD 1.2.1 (UTC 2008-12-04)

Audio
ID                                       : 1
Format                                   : MPEG Audio
Format version                           : Version 1
Format profile                           : Layer 3
Mode                                     : Joint stereo
Mode extension                           : MS Stereo
Codec ID                                 : 55
Codec ID/Hint                            : MP3
Duration                                 : 1h 28mn
Bit rate mode                            : Variable
Bit rate                                 : 119 Kbps
Nominal bit rate                         : 128 Kbps
Channel(s)                               : 2 channels
Sampling rate                            : 48.0 KHz
Compression mode                         : Lossy
Stream size                              : 75.5 MiB (11%)
Alignment                                : Aligned on interleaves
Interleave, duration                     : 24 ms (0.60 video frame)
Interleave, preload duration             : 109 ms
Title                                    : VTS_09_1 T80 2_0ch 192Kbps DELAY 0ms
Writing library                          : LAME3.99r
Encoding settings                        : -m j -V 4 -q 2 -lowpass 17 --abr 128


Desciption of Amuse Me Versaute Flittchen German XXX DVDRip XviD-CHiKANi
Category XXX movies
Genre       Foreign      
Rating N/A
Size 698.44 MB
Show/Hide Files
1 file
AddDate 17/11/2012
Uploader xjock4ever23
Speed 0 KB/sec
Down 10 times
peers seeds: 4, leechers: 4 = 8 peers
Who thanks


No comments...