Torrent’s details
Name

Private.Black.Angelika.Gives.A.Perfect.Boob.Fuck.XXX.MP4-ducky81

Torrent
Info Hash f621a954548150e2c822048325988c195eadd078
Share with friends
Share |
Image Private.Black.Angelika.Gives.A.Perfect.Boob.Fuck.XXX.MP4-ducky81
Screenshots
Embed code
embed code for Private.Black.Angelika.Gives.A.Perfect.Boob.Fuck.XXX.MP4-ducky81
Description


General
Complete name                        ducky81-pri.black.angelika.gives.a.perfect.boob.fuck.mp4
Format                                   : MPEG-4
Format profile                           : Base Media
Codec ID                                 : isom
File size                                : 293 MiB
Duration                                 : 21mn 37s
Overall bit rate mode                    : Variable
Overall bit rate                         : 1 897 Kbps
Encoded date                             : UTC 2012-12-17 14:55:20
Tagged date                              : UTC 2012-12-17 14:55:20
Writing application                      : My MP4Box GUI 0.5.6.0 <http://my-mp4box-gui.zymichost.com>

Video
ID                                       : 1
Format                                   : AVC
Format/Info                              : Advanced Video Codec
Format profile                           : High@L3.1
Format settings, CABAC                   : Yes
Format settings, ReFrames                : 2 frames
Codec ID                                 : avc1
Codec ID/Info                            : Advanced Video Coding
Duration                                 : 21mn 37s
Bit rate mode                            : Variable
Bit rate                                 : 1 698 Kbps
Maximum bit rate                         : 2 250 Kbps
Width                                    : 720 pixels
Height                                   : 404 pixels
Display aspect ratio                     : 16:9
Frame rate mode                          : Constant
Frame rate                               : 25.000 fps
Color space                              : YUV
Chroma subsampling                       : 4:2:0
Bit depth                                : 8 bits
Scan type                                : Progressive
Bits/(Pixel*Frame)                       : 0.234
Stream size                              : 263 MiB (90%)
Title                                    : Imported with GPAC 0.4.6-DEV (internal rev. 5)
Encoded date                             : UTC 2012-12-17 14:55:20
Tagged date                              : UTC 2012-12-17 14:55:27

Audio
ID                                       : 2
Format                                   : AAC
Format/Info                              : Advanced Audio Codec
Format profile                           : LC
Codec ID                                 : 40
Duration                                 : 21mn 37s
Bit rate mode                            : Variable
Bit rate                                 : 111 Kbps
Maximum bit rate                         : 142 Kbps
Channel(s)                               : 2 channels
Channel positions                        : Front: L R
Sampling rate                            : 48.0 KHz
Compression mode                         : Lossy
Stream size                              : 17.2 MiB (6%)
Language                                 : English
Encoded date                             : UTC 2012-12-17 14:55:26
Tagged date                              : UTC 2012-12-17 14:55:27






Desciption of Private.Black.Angelika.Gives.A.Perfect.Boob.Fuck.XXX.MP4-ducky81
Category XXX clips
Genre       Anal       Teen      
Rating N/A
Size 293.32 MB
Show/Hide Files
1 file
AddDate 11/04/2013
Uploader xjock4ever23
Speed 0 KB/sec
Down 7 times
peers seeds: 7, leechers: 3 = 10 peers
Who thanks


No comments...