Torrent’s details
Name

WowGirls - Vision - Monroe

Torrent
Info Hash f916ea400aca1dc52146fceac75595ad993ea1a4
Share with friends
Share |
Screenshots
Embed code
embed code for WowGirls - Vision - Monroe
Description


General
Complete name                            : D:WowGirls - Vision - Monroe [1080p].wmv
Format                                   : Windows Media
File size                                : 708 MiB
Duration                                 : 18mn 20s
Overall bit rate mode                    : Variable
Overall bit rate                         : 5 396 Kbps
Maximum Overall bit rate                 : 7 616 Kbps
Encoded date                             : UTC 2012-02-29 00:39:11.769
SfOriginalFPS                            : 299700

Video
ID                                       : 2
Format                                   : VC-1
Format profile                           : MP@HL
Codec ID                                 : WMV3
Codec ID/Info                            : Windows Media Video 9
Codec ID/Hint                            : WMV3
Description of the codec                 : Windows Media Video 9 - Professional
Duration                                 : 18mn 20s
Bit rate mode                            : Variable
Bit rate                                 : 5 176 Kbps
Width                                    : 1 920 pixels
Height                                   : 1 080 pixels
Display aspect ratio                     : 16:9
Frame rate                               : 29.970 fps
Bit depth                                : 8 bits
Scan type                                : Progressive
Compression mode                         : Lossy
Bits/(Pixel*Frame)                       : 0.083
Stream size                              : 679 MiB (96%)
Language                                 : Russian

Audio
ID                                       : 1
Format                                   : WMA
Format version                           : Version 2
Codec ID                                 : 161
Codec ID/Info                            : Windows Media Audio
Description of the codec                 : Windows Media Audio 9.2 - 192 kbps, 44 kHz, stereo (A/V) 1-pass CBR
Duration                                 : 18mn 20s
Bit rate mode                            : Constant
Bit rate                                 : 192 Kbps
Channel(s)                               : 2 channels
Sampling rate                            : 44.1 KHz
Bit depth                                : 16 bits
Stream size                              : 25.2 MiB (4%)
Language                                 : Russian


http://ece0a107.galleries.bz

http://13ac3535.galleries.bz

http://69339523.galleries.bz

http://2491ecd9.galleries.bz

http://50ec9f39.galleries.bz

http://adf.ly/A9brH

http://adf.ly/A9buj

http://adf.ly/A9bxy
Desciption of WowGirls - Vision - Monroe
Category XXX movies - DVD
Genre       Teen      
Rating N/A
Size 14.33 KB
Show/Hide Files
1 file
AddDate 28/06/2012
Uploader kameluss
Speed 0 KB/sec
Down 2 times
peers seeds: 0, leechers: 0 = 0 peers
Who thanks


No comments...