Torrent’s details
Name

Monster.Curves.2.XXX.DVDRip.XviD-Pr0nStarS

Torrent
Info Hash fefff0d9fe21f3f8b9aa8dc46675a8b5b512fc85
Share with friends
Share |
Image Monster.Curves.2.XXX.DVDRip.XviD-Pr0nStarS
Screenshots
Embed code
embed code for Monster.Curves.2.XXX.DVDRip.XviD-Pr0nStarS
Description Video
Format                           : MPEG-4 Visual
Format profile                   : Streaming Video@L1
Format settings, BVOP            : Yes
Format settings, QPel            : No
Format settings, GMC             : No warppoints
Format settings, Matrix          : Default
Codec ID                         : XVID
Codec ID/Hint                    : XviD
Duration                         : 58mn 28s
Bit rate                         : 1 532 Kbps
Width                            : 512 pixels
Height                           : 384 pixels
Display aspect ratio             : 4/3
Frame rate                       : 29.970 fps
Resolution                       : 24 bits
Colorimetry                      : 4:2:0
Scan type                        : Progressive
Bits/(Pixel*Frame)               : 0.260
Stream size                      : 641 MiB (92%)
Writing library                  : XviD 1.2.0SMP (UTC 2006-01-0cool1.gif

Audio
Format                           : MPEG Audio
Format version                   : Version 1
Format profile                   : Layer 3
Codec ID                         : 55
Codec ID/Hint                    : MP3
Duration                         : 58mn 28s
Bit rate mode                    : Variable
Bit rate                         : 128 Kbps
Nominal bit rate                 : 130 Kbps
Channel(s)                       : 2 channels
Sampling rate                    : 48.0 KHz
Resolution                       : 16 bits
Stream size                      : 53.0 MiB (8%)
Alignment                        : Aligned on interleaves
Interleave, duration             : 24 ms (0.72 video frame)
Interleave, preload duration     : 144 ms
Writing library                  : LAME3.90.
Encoding settings                : ABR

http://www.cduniverse.com/productinfo.asp?pid=7817574&style=ice







Desciption of Monster.Curves.2.XXX.DVDRip.XviD-Pr0nStarS
Category XXX movies
Genre       Gonzo      
Rating N/A
Size 2.04 GB
Show/Hide Files
4 files
AddDate 15/11/2012
Uploader xjock4ever23
Speed 0 KB/sec
Down 12 times
peers seeds: 7, leechers: 2 = 9 peers
Who thanks


No comments...